Trance Desire Best of All Time #4 (Mixed by Oxya^)

Trance Desire Best of All Time #4 (Mixed by Oxya^)Artist: VA
Title: Trance Desire Best of All Time #4 (Mixed by Oxya^)
Label: #3LIMEREC @mp3s.su @facebook @twitter @Mixcloud @Google+ @youtube
Genre: Vocal Trance
Store Date: 20 October 2017
Source: WEB
# Tracks: 10
# CDs: 1
Lenght: 01:18:21
Format: *.mp3
Codec: Lame 3.99.5
Quality: HQ 320 kbps
Channels: Joint Stereo / 44 khz
Tags: ID3 v2.3, cover
Nonstop mix: Yes
*.cue: No
Archive size: 181 mb
Recovery record: yes
Login: Password:

 

Still not signed in?
to leave comments, see hidden links and just be a part of our community ;)
Tracklist:
001. Paul Van Dyk - For An Angel (E-Work Club Mix) 00:00:00
002. 4 Strings - Take Me Away (Into The Night) (Original Vocal Mix) 00:07:25
003. Rank 1 - Awakening 00:14:09
004. John O'Callaghan feat. Audrey Gallagher - Big Sky 00:21:59
005. ATB - 9 PM (Till I Come) 00:31:19
006. Vincent De Moor - Fly Away 00:36:39
007. Kai Tracid - Trance & Acid 00:44:21
008. Cor Fijneman Ft. Jan Johnston - Venus (Meant To Be Your Lover) (Tiesto Remix) 00:51:05
009. Yahel - Sugar One 00:58:20
010. O'Callaghan & Kearney - Exactly 01:05:51



Listen Online: Trance Desire Best of All Time #3 (Mixed by Oxya^)
https://www.mixcloud.com/3LIMEREC/trance-desire-best-of-all-time-4-mixed-by-oxya/[/leech]


Oops! Something is hidden :)
Looks like you're unregistered user :( Log in, or take a few seconds to register new account ;)

Oops! Something is hidden :)
Looks like you're unregistered user :( Log in, or take a few seconds to register new account ;)

views:
535
comments:
2 Read ;)
rated: 1
full story:
Back to news

status:
Offline
group:
Visitors
news:
0
comments:
1
when:
22 Oct '17, 20:02

The tracklist is the same of the third episode.
status:
Offline
group:
Visitors
news:
0
comments:
6
when:
23 Oct '17, 14:56

thats the right cue ......

TITLE "Trance Desire Best of All Time #4"
FILE "Trance Desire Best of All Time #4.mp3" MP3
TRACK 01 AUDIO
PERFORMER "Dash Berlin feat. Emma Hewitt"
TITLE "Waiting"
INDEX 01 00:00:00
TRACK 02 AUDIO
PERFORMER "Three Drives On A Vinyl"
TITLE "Greece 2000"
INDEX 01 09:21:00
TRACK 03 AUDIO
PERFORMER "Chicane vs. Natasha Bedingfield"
TITLE "Bruised Water (Michael Woods Dub Mix)"
INDEX 01 17:06:00
TRACK 04 AUDIO
PERFORMER "Ferry Corsten"
TITLE "Beautiful"
INDEX 01 24:54:00
TRACK 05 AUDIO
PERFORMER "Paul Van Dyk ft. Vega 4"
TITLE "Time Of Our Lives (Paul Van Dyk Club Mix)"
INDEX 01 33:03:00
TRACK 06 AUDIO
PERFORMER "Binary Finary"
TITLE "1998 (Gouryella Remix)"
INDEX 01 39:27:00
TRACK 07 AUDIO
PERFORMER "Coast 2 Coast feat. Discovery"
TITLE "Home"
INDEX 01 46:00:00
TRACK 08 AUDIO
PERFORMER "Armin Van Buuren Pres. Gaia"
TITLE "Aisha (Original Mix)"
INDEX 01 54:09:00
TRACK 09 AUDIO
PERFORMER "Signum feat. Scott Mac"
TITLE "Coming On Strong"
INDEX 01 61:48:00
TRACK 10 AUDIO
PERFORMER "Niels Van Gogh"
TITLE "Pulverturm (DJ Tomcraft Remix)"
INDEX 01 68:54:00

enjoy the muzek .....

thnx Oxya ......

Info

Oops! It looks like you're still unregistered Guest! 4REAL? :) Sign up now! It's only like 40 seconds, ok.. ok... 45 :) Or you can do it faster? ;)
You can help us :)
Bitcoin wallet:
1FXoYHSn3k3HeMXKrQrBxLu4o3NdGdX8ok
PayPal:
Please contact for details :)

Sex?

Male
Female
50/50

2006-2017
Proud to be online for you since 2006 ;)
Follow us #3LIMEREC ;) Show us ur love ;)

Designed with love
ACKOPBINKA