Trance Desire Volume 71 (Mixed by Oxya^)

Trance Desire Volume 71 (Mixed by Oxya^)Artist: VA
Title: Trance Desire Volume 71 (Mixed by Oxya^)
Label: #3LIMEREC @mp3s.su @facebook @twitter @Mixcloud @Google+ @youtube
Genre: Vocal Trance
Store Date: 21 August 2018
Source: WEB
# Tracks: 10
# CDs: 1
Length: 01:01:24
Format: *.mp3
Codec: Lame 3.99.5
Quality: HQ 320 kbps
Channels: Joint Stereo / 44 khz
Tags: ID3 v2.3, cover
Nonstop mix: Yes
*.cue: No
Archive size: 144 mb
Recovery record: yes

p.s. I know u missed it :) Best way to "thanks" us is share it with your friends and LIKE IT :)
Login: Password:

 

Still not signed in?
to leave comments, see hidden links and just be a part of our community ;)
Tracklist:
01. Andy Duguid - Don't Belong (feat Leah & Sied van Riel Remix) 00:00:00
02. Cosmic Gate & Ferry Corsten - Dynamic (Extended Mix) 00:05.34
03. Ilan Bluestone feat. Giuseppe de Luca - Frozen Ground (Extended Mix) 00:11:17
04. Mark Sherry - Gravitational Waves (Original Mix) 00:16:47
05. Re-Locate vs. Robert Nickson & Afternova - Leaving Earth (Extended Club Mix) 00:25:12
06. Denis Kenzo & Kimberly Hale - Listen (Original Mix) 00:31:47
07. Ferry Corsten feat Aruna - Live Forever (Solid Stone Extended Remix) 00:36:52
08. Beat Service feat. Cathy Burton - Love Is Your Home (Original Mix) 00:43:14
09. Kamaya Painters - Northern Spirit 00:48:37
10. Armin van Buuren - This Is A Test (Arkham Knights Extended Remix) 00:54:17



Listen Online: Trance Desire Volume 71 (Mixed by Oxya^)
https://www.mixcloud.com/3LIMEREC/trance-desire-volume-71-mixed-by-oxya/


Oops! Something is hidden :)
Looks like you're unregistered user :( Log in, or take a few seconds to register new account ;)

Oops! Something is hidden :)
Looks like you're unregistered user :( Log in, or take a few seconds to register new account ;)

views:
1777
comments:
3 Read ;)
rated: 4
full story:
Back to news

status:
Offline
group:
Visitors
news:
0
comments:
21
when:
21 Jul '18, 12:18

wink wink the waiting is over , super mix winked
status:
Offline
group:
Visitors
news:
0
comments:
6
when:
21 Jul '18, 21:42

Thats true. Really good mix
status:
Offline
group:
Visitors
news:
0
comments:
7
when:
22 Jul '18, 14:14

thnx very much for the nice mix once again .....
please keep on goin ..........

here is the cue 4 everyone .....


TITLE "Trance Desire Volume 71"
FILE "Trance Desire 71.mp3" MP3
TRACK 01 AUDIO
PERFORMER "Andy Duguid"
TITLE "Don't Belong (feat Leah & Sied van Riel Remix)"
INDEX 01 00:00:00
TRACK 02 AUDIO
PERFORMER "Cosmic Gate & Ferry Corsten"
TITLE "Dynamic (Extended Mix)"
INDEX 01 05:34:00
TRACK 03 AUDIO
PERFORMER " Ilan Bluestone feat. Giuseppe de Luca"
TITLE "Frozen Ground (Extended Mix)"
INDEX 01 11:17:00
TRACK 04 AUDIO
PERFORMER "Mark Sherry"
TITLE "Gravitational Waves (Original Mix)"
INDEX 01 16:47:00
TRACK 05 AUDIO
PERFORMER "Re-Locate vs. Robert Nickson & Afternova"
TITLE "Leaving Earth (Extended Club Mix)"
INDEX 01 25:12:00
TRACK 06 AUDIO
PERFORMER "Denis Kenzo & Kimberly Hale"
TITLE "Listen (Original Mix)"
INDEX 01 31:47:00
TRACK 07 AUDIO
PERFORMER "Ferry Corsten feat Aruna"
TITLE "Live Forever (Solid Stone Extended Remix)"
INDEX 01 36:52:00
TRACK 08 AUDIO
PERFORMER "Beat Service feat. Cathy Burton"
TITLE "Love Is Your Home (Original Mix)"
INDEX 01 43:14:00
TRACK 09 AUDIO
PERFORMER "Kamaya Painters"
TITLE "Northern Spirit"
INDEX 01 48:37:00
TRACK 10 AUDIO
PERFORMER "Armin van Buuren"
TITLE "This Is A Test (Arkham Knights Extended Remix)"
INDEX 01 54:17:00

enjoy the muzek ............

Info

Oops! It looks like you're still unregistered Guest! 4REAL? :) Sign up now! It's only like 40 seconds, ok.. ok... 45 :) Or you can do it faster? ;)
You can help us :)
Bitcoin wallet:
1FXoYHSn3k3HeMXKrQrBxLu4o3NdGdX8ok

New mp3s.su design?

Awsome!
Nice :)
I loved the old one!!! Get it back! :)

2006-2018
Proud to be online for you since 2006 ;)
Follow us #3LIMEREC ;) Show us ur love ;)

Designed with love
ACKOPBINKA