Trance Desire Volume 73 (Mixed by Oxya^)

Trance Desire Volume 73 (Mixed by Oxya^)Artist: VA
Title: Trance Desire Volume 73 (Mixed by Oxya^)
Label: #3LIMEREC @mp3s.su @facebook @twitter @Mixcloud @Google+ @youtube
Genre: Vocal Trance
Store Date: 25 October 2018
Source: WEB
# Tracks: 10
# CDs: 1
Length: 01:04:46
Format: *.mp3
Codec: Lame 3.99.5
Quality: HQ 320 kbps
Channels: Joint Stereo / 44 khz
Tags: ID3 v2.3, cover
Nonstop mix: Yes
*.cue: No
Archive size: 148 mb
Recovery record: yes

Lads! I really love that mix :) If you like it same way i do, just send youtube link to all your friends :)
Login: Password:

 

Still not signed in?
to leave comments, see hidden links and just be a part of our community ;)
Tracklist:
01. Mike Van Fabio, Sarah Shields - A Light That Never Dies (Original Mix) 00:00:00
02. Dark Fusion - Be There For You (Extended Mix) 00:05:30
03. Ahmed Romel - Drussila (Original Mix) 00:12:04
04. Illitheas & Manuel Rocca - Enchanted (Original Mix) 00:18:33
05. RAM - Forever And A Day (Giuseppe Ottaviani Remix) 00:25:19
06. Armin van Buuren vs. Vini Vici feat. Hilight Tribe - Great Spirit (Extended Mix) 00:31:47
07. Lostly - Rage At the Stars (Original Mix) 00:38:42
08. Lee Osborne feat. Roxanne Emery - Safe In The Sky (Original Mix) 00:45:24
09. Sean Tyas - Start Over (Receptive & New World Remix) 00:50:29
10. Allen Watts & Alessandra Roncone - The Hymn (Extended Mix) 00:57:59





Oops! Something is hidden :)
Looks like you're unregistered user :( Log in, or take a few seconds to register new account ;)

Oops! Something is hidden :)
Looks like you're unregistered user :( Log in, or take a few seconds to register new account ;)

views:
719
comments:
5 Read ;)
rated: 2
full story:
Back to news

status:
Offline
group:
Visitors
news:
0
comments:
8
when:
25 Oct '18, 23:45

thnx very much for the mix.

please keep on goin doing such nice mixes ....... winked


here is the cue for everybody

TITLE "Trance Desire Volume 73"
FILE "Trance Desire 73.mp3" MP3
TRACK 01 AUDIO
PERFORMER "Mike Van Fabio, Sarah Shields"
TITLE "A Light That Never Dies (Original Mix)"
INDEX 01 00:00:00
TRACK 02 AUDIO
PERFORMER "Dark Fusion"
TITLE "Be There For You (Extended Mix)"
INDEX 01 05:30:00
TRACK 03 AUDIO
PERFORMER "Ahmed Romel"
TITLE "Drussila (Original Mix)"
INDEX 01 12:04:00
TRACK 04 AUDIO
PERFORMER "Illitheas & Manuel Rocca"
TITLE "Enchanted (Original Mix)"
INDEX 01 18:33:00
TRACK 05 AUDIO
PERFORMER "RAM"
TITLE "Forever And A Day (Giuseppe Ottaviani Remix)"
INDEX 01 25:19:00
TRACK 06 AUDIO
PERFORMER "Armin van Buuren vs. Vini Vici feat. Hilight Tribe"
TITLE "Great Spirit (Extended Mix)"
INDEX 01 31:47:00
TRACK 07 AUDIO
PERFORMER "Lostly"
TITLE "Rage At the Stars (Original Mix)"
INDEX 01 38:42:00
TRACK 08 AUDIO
PERFORMER "Lee Osborne feat. Roxanne Emery"
TITLE "Safe In The Sky (Original Mix)"
INDEX 01 45:24:00
TRACK 09 AUDIO
PERFORMER "Sean Tyas"
TITLE "Start Over (Receptive & New World Remix)"
INDEX 01 50:29:00
TRACK 10 AUDIO
PERFORMER "Allen Watts & Alessandra Roncone"
TITLE "The Hymn (Extended Mix)"
INDEX 01 57:59:00
status:
Offline
group:
Visitors
news:
0
comments:
7
when:
27 Oct '18, 22:30

maybe a special one (a longer mix). Your mixes are great. keep up the good work
status:
Offline
group:
Visitors
news:
0
comments:
53
when:
01 Nov '18, 18:33

wink Thank for cue!
by:
ZooM
status:
Offline
group:
Journalists
news:
57
comments:
11
when:
02 Nov '18, 9:28

I love mp3s.su it is besst platform ever i see

Oxya^ the best admin, I have not met on the Internet
status:
Offline
group:
Administrators
news:
1176
comments:
249
when:
07 Nov '18, 3:41

Quote: ZooM
I love mp3s.su it is besst platform ever i see

Oxya^ the best admin, I have not met on the Internet

Наливай =)
When it's closing time, you hope you gonna make it! There is one last dance, ur final chance, so take it!

Info

Oops! It looks like you're still unregistered Guest! 4REAL? :) Sign up now! It's only like 40 seconds, ok.. ok... 45 :) Or you can do it faster? ;)
You can help us :)
Bitcoin wallet:
1FXoYHSn3k3HeMXKrQrBxLu4o3NdGdX8ok

mp3s.su

In my favorites
Is my homepage
I'll make it my homepage right now
Will add it to my favorites
None ;) Just a guest here

2006-2018
Proud to be online for you since 2006 ;)
Follow us #3LIMEREC ;) Show us ur love ;)

Designed with love
ACKOPBINKA