Trance Desire Volume 74 (Mixed by Oxya^)

Trance Desire Volume 74 (Mixed by Oxya^)Artist: VA
Title: Trance Desire Volume 74 (Mixed by Oxya^)
Label: #3LIMEREC @mp3s.su @facebook @twitter @Mixcloud @Google+ @youtube
Genre: Vocal Trance
Store Date: 25 October 2018
Source: WEB
# Tracks: 10
# CDs: 1
Length: 01:09:57
Format: *.mp3
Codec: Lame 3.99.5
Quality: HQ 320 kbps
Channels: Joint Stereo / 44 khz
Tags: ID3 v2.3, cover
Nonstop mix: Yes
*.cue: No
Archive size: 164 mb
Recovery record: yes
Login: Password:

 

Still not signed in?
to leave comments, see hidden links and just be a part of our community ;)
Tracklist:
01. Alex Kunnari - 1990 00:00:00
02. Kyau & Albert - Always a Fool (Stoneface & Terminal Remix) 00:06:50
03. Gareth Emery feat. Christina Novelli - Dynamite (MaRLo Remix) 00:14:25
04. Ferry Corsten - Gouryella (From the Heavens Mix) 00:19:08
05. Robert Nickson - Heliopause (Original Mix) 00:29:22
06. Denis Kenzo & Sveta B. - Just To Hear (Extended Mix) 00:35:45
07. Andy Moor & Somna - Look Back (LTN Remix) 00:42:09
08. Orkidea - Nana (Gai Barone Remix) 00:46:45
09. Mark Sherry - Nordic Nights (Original Mix) 00:54:41
10. Alter Future - The Sign 01:02:44



Listen Online: Trance Desire Volume 74 (Mixed by Oxya^)
https://www.mixcloud.com/3LIMEREC/trance-desire-volume-74-mixed-by-oxya/


Oops! Something is hidden :)
Looks like you're unregistered user :( Log in, or take a few seconds to register new account ;)

Oops! Something is hidden :)
Looks like you're unregistered user :( Log in, or take a few seconds to register new account ;)

views:
2003
comments:
1 Read ;)
rated: 2
full story:
Back to news

status:
Offline
group:
Visitors
news:
0
comments:
9
when:
24 Dec '18, 22:22

thanx oxya . ...... 4 the nice share ......

here is the cue 4 everybody. ......
enjoy .......

TITLE "Trance Desire Volume 74"
FILE "Trance Desire 74.mp3" MP3
TRACK 01 AUDIO
PERFORMER "Alex Kunnari"
TITLE "1990"
INDEX 01 00:00:00
TRACK 02 AUDIO
PERFORMER "Kyau & Albert"
TITLE "Always a Fool (Stoneface & Terminal Remix)"
INDEX 01 06:50:00
TRACK 03 AUDIO
PERFORMER "Gareth Emery feat. Christina Novelli"
TITLE "Dynamite (MaRLo Remix)"
INDEX 01 14:25:00
TRACK 04 AUDIO
PERFORMER "Ferry Corsten"
TITLE "Gouryella (From the Heavens Mix)"
INDEX 01 19:08:00
TRACK 05 AUDIO
PERFORMER "Robert Nickson"
TITLE "Heliopause (Original Mix)"
INDEX 01 29:22:00
TRACK 06 AUDIO
PERFORMER "Denis Kenzo & Sveta B."
TITLE "Just To Hear (Extended Mix)"
INDEX 01 35:45:00
TRACK 07 AUDIO
PERFORMER "Andy Moor & Somna"
TITLE "Look Back (LTN Remix)"
INDEX 01 42:09:00
TRACK 08 AUDIO
PERFORMER "Orkidea"
TITLE "Nana (Gai Barone Remix)"
INDEX 01 46:45:00
TRACK 09 AUDIO
PERFORMER "Mark Sherry"
TITLE "Nordic Nights (Original Mix)"
INDEX 01 54:41:00
TRACK 10 AUDIO
PERFORMER "Alter Future"
TITLE "The Sign"
INDEX 01 62:44:00


have fun. ..... wink

Info

Oops! It looks like you're still unregistered Guest! 4REAL? :) Sign up now! It's only like 40 seconds, ok.. ok... 45 :) Or you can do it faster? ;)
You can help us :)
Bitcoin wallet:
1FXoYHSn3k3HeMXKrQrBxLu4o3NdGdX8ok

Where ru from?

Germany
Australia
Russia
USA
Mexico
Turkey
Poland
Belgium
UK
Italy
Netherlands
Portugal
Israel
Spain
Hungary
India
Slovakia
Ukraine
Estonia
Greece
France
Roumania
Czech republic
Canada
Lithuania
Switzerland
Egypt
Argentina
Malaysia
Other (Europe)
Other (nonEurope)

2006-2018
Proud to be online for you since 2006 ;)
Follow us #3LIMEREC ;) Show us ur love ;)

Designed with love
ACKOPBINKA